<?xml version="1.0" standalone="no"?>
<!DOCTYPE svg PUBLIC "-//W3C//DTD SVG 1.1//EN" "http://www.w3.org/Graphics/SVG/1.1/DTD/svg11.dtd" >
<svg xmlns="http://www.w3.org/2000/svg">
<metadata>Generated by IcoMoon</metadata>
<defs>
<font id="icomoon" horiz-adv-x="1024">
<font-face units-per-em="1024" ascent="960" descent="-64" />
<missing-glyph horiz-adv-x="1024" />
<glyph unicode="&#x20;" horiz-adv-x="512" d="" />
<glyph unicode="&#xe900;" glyph-name="discord" horiz-adv-x="1097" d="M912.896 777.477c-65.265 27.807-135.256 48.295-208.432 60.030-1.333 0.226-2.664-0.34-3.351-1.472-9.001-14.866-18.972-34.259-25.953-49.502-78.707 10.941-157.010 10.941-234.102 0-6.983 15.582-17.316 34.637-26.357 49.502-0.687 1.094-2.018 1.66-3.351 1.472-73.136-11.697-143.124-32.184-208.432-60.030-0.565-0.227-1.050-0.604-1.371-1.094-132.753-184.163-169.119-363.801-151.279-541.21 0.081-0.868 0.605-1.698 1.332-2.226 87.586-59.73 172.429-95.987 255.696-120.022 1.333-0.38 2.744 0.073 3.593 1.097 19.697 24.971 37.255 51.31 52.309 79.009 0.889 1.616 0.040 3.54-1.775 4.184-27.851 9.808-54.369 21.775-79.878 35.354-2.018 1.094-2.18 3.774-0.323 5.057 5.368 3.735 10.737 7.621 15.863 11.546 0.927 0.717 2.22 0.867 3.31 0.415 167.583-71.044 349.014-71.044 514.621 0 1.090 0.491 2.384 0.339 3.35-0.377 5.127-3.924 10.496-7.847 15.901-11.583 1.858-1.283 1.733-3.963-0.278-5.057-25.512-13.85-52.034-25.545-79.923-35.317-1.814-0.636-2.619-2.604-1.733-4.22 15.375-27.663 32.936-53.994 52.268-78.972 0.812-1.061 2.26-1.514 3.591-1.134 83.675 24.035 168.514 60.292 256.102 120.022 0.768 0.527 1.251 1.32 1.331 2.188 21.35 205.106-35.76 383.269-151.398 541.211-0.285 0.527-0.768 0.905-1.331 1.132zM388.223 343.197c-50.454 0-92.027 43.012-92.027 95.835s40.766 95.836 92.027 95.836c51.663 0 92.834-43.391 92.026-95.836 0-52.823-40.767-95.835-92.026-95.835zM728.479 343.197c-50.453 0-92.026 43.012-92.026 95.835s40.765 95.836 92.026 95.836c51.663 0 92.835-43.391 92.031-95.836 0-52.823-40.368-95.835-92.031-95.835z" />
<glyph unicode="&#xe901;" glyph-name="facebook" d="M1006.066 473.7c0 263.919-213.948 477.867-477.867 477.867s-477.866-213.948-477.866-477.867c0-238.514 174.748-436.214 403.2-472.061v333.928h-121.333v138.133h121.333v105.28c0 119.766 71.344 185.92 180.498 185.92 52.268 0 106.97-9.333 106.97-9.333v-117.6h-60.256c-59.361 0-77.878-36.838-77.878-74.667v-89.6h132.536l-21.19-138.133h-111.346v-333.928c228.451 35.847 403.2 233.547 403.2 472.061z" />
<glyph unicode="&#xe902;" glyph-name="arrow-top-right" horiz-adv-x="910" d="M884.976 800.487c-4.164 10.065-10.337 19.495-18.518 27.675-16.662 16.663-38.501 24.994-60.34 24.994h-677.34c-47.129 0-85.334-38.205-85.334-85.334s38.205-85.333 85.334-85.333h471.327l-531.667-531.666c-33.325-33.326-33.325-87.355 0-120.68 33.325-33.326 87.354-33.326 120.68 0l531.666 531.666v-471.327c0-47.129 38.205-85.333 85.333-85.333 47.129 0 85.333 38.204 85.333 85.333v677.271c0 0.286-0.001 0.571-0.003 0.857-0.099 10.852-2.256 21.689-6.472 31.876z" />
<glyph unicode="&#xe903;" glyph-name="arrow-top-left" d="M112.135 800.487c4.164 10.065 10.337 19.495 18.519 27.675 16.663 16.663 38.501 24.994 60.34 24.994h677.341c47.128 0 85.333-38.205 85.333-85.334s-38.205-85.333-85.333-85.333h-471.328l531.668-531.666c33.324-33.326 33.324-87.355 0-120.68-33.326-33.326-87.355-33.326-120.68 0l-531.668 531.666v-471.327c0-47.129-38.205-85.333-85.333-85.333s-85.333 38.204-85.333 85.333v677.271c0 0.286 0.001 0.571 0.004 0.857 0.1 10.852 2.257 21.689 6.471 31.876z" />
<glyph unicode="&#xe904;" glyph-name="arrow-top" d="M500.030 888.973c8.232 3.414 17.259 5.298 26.725 5.298 19.28 0 36.735-7.815 49.369-20.449l391.872-391.87c27.266-27.265 27.266-71.472 0-98.738s-71.474-27.265-98.74 0l-272.683 272.683v-615.184c0-38.562-31.258-69.822-69.818-69.822s-69.818 31.26-69.818 69.822v615.184l-272.683-272.683c-27.265-27.265-71.471-27.265-98.737 0s-27.266 71.472 0 98.738l391.83 391.83c0.165 0.165 0.33 0.33 0.497 0.493 6.337 6.221 13.854 11.243 22.185 14.698z" />
<glyph unicode="&#xe905;" glyph-name="arrow-bottom" horiz-adv-x="1117" d="M596.287-23.803c-8.232-3.416-17.258-5.306-26.725-5.306-19.279 0-36.734 7.82-49.369 20.452l-391.87 391.871c-27.265 27.265-27.265 71.472 0 98.738s71.472 27.265 98.738 0l272.683-272.683v615.184c0 38.559 31.259 69.818 69.818 69.818s69.818-31.259 69.818-69.818v-615.184l272.683 272.683c27.262 27.265 71.471 27.265 98.737 0s27.266-71.472 0-98.738l-391.829-391.834c-0.165-0.158-0.331-0.326-0.498-0.493-6.336-6.218-13.854-11.236-22.185-14.69z" />
<glyph unicode="&#xe906;" glyph-name="web-world" d="M531.728 885.975c-57.357 0-114.152-11.298-167.143-33.247s-101.139-54.121-141.696-94.679c-40.558-40.557-72.729-88.706-94.679-141.696s-33.246-109.786-33.246-167.143c0-57.357 11.297-114.151 33.246-167.14 21.95-52.995 54.121-101.141 94.679-141.698s88.706-72.728 141.696-94.678c52.991-21.95 109.786-33.25 167.143-33.25s114.151 11.3 167.14 33.25c52.995 21.95 101.141 54.121 141.698 94.678s72.734 88.702 94.678 141.698c21.95 52.989 33.25 109.784 33.25 167.14s-11.3 114.152-33.25 167.143c-21.944 52.991-54.121 101.139-94.678 141.696s-88.702 72.729-141.698 94.679c-52.989 21.949-109.783 33.247-167.14 33.247zM343.251 904.234c59.755 24.751 123.799 37.49 188.477 37.49s128.722-12.739 188.475-37.49c59.759-24.751 114.050-61.029 159.786-106.764 45.731-45.734 82.010-100.029 106.761-159.783s37.49-123.799 37.49-188.477c0-64.678-12.74-128.722-37.49-188.476s-61.030-114.050-106.761-159.786c-45.737-45.731-100.027-82.010-159.786-106.761-59.753-24.751-123.797-37.49-188.475-37.49s-128.722 12.74-188.477 37.49c-59.755 24.751-114.049 61.030-159.783 106.761-45.734 45.737-82.013 100.033-106.763 159.786s-37.491 123.798-37.491 188.476c0 64.678 12.739 128.723 37.491 188.477s61.029 114.049 106.763 159.783c45.734 45.734 100.029 82.013 159.783 106.764zM531.711 885.975c-14.594 0-31.974-7.081-51.073-26.858-19.206-19.888-38.016-50.585-54.466-91.71-16.364-40.909-29.586-90.122-38.67-144.944-9.074-54.769-13.772-113.66-13.772-173.254s4.698-118.482 13.772-173.254c9.083-54.82 22.306-104.032 38.67-144.944 16.45-41.123 35.26-71.819 54.466-91.708 19.099-19.775 36.478-26.859 51.073-26.859s31.973 7.084 51.072 26.859c19.206 19.89 38.013 50.586 54.464 91.708 16.366 40.912 29.588 90.124 38.671 144.944 9.077 54.772 13.776 113.661 13.776 173.254s-4.698 118.485-13.776 173.254c-9.083 54.821-22.305 104.034-38.671 144.944-16.45 41.125-35.258 71.822-54.464 91.71-19.099 19.777-36.478 26.858-51.072 26.858zM440.536 897.844c26 26.923 56.955 43.88 91.176 43.88s65.176-16.956 91.176-43.88c25.889-26.812 48.056-64.566 66.126-109.732 18.149-45.382 32.31-98.612 41.906-156.536 9.608-57.976 14.523-119.924 14.523-182.366s-4.915-124.391-14.523-182.368c-9.595-57.922-23.757-111.152-41.906-156.533-18.071-45.164-40.237-82.92-66.126-109.731-26.001-26.925-56.956-43.881-91.176-43.881s-65.176 16.956-91.176 43.881c-25.892 26.811-48.059 64.566-66.125 109.731-18.153 45.381-32.31 98.611-41.908 156.533-9.606 57.976-14.522 119.927-14.522 182.368s4.916 124.39 14.522 182.366c9.597 57.924 23.754 111.154 41.908 156.536 18.066 45.166 40.234 82.92 66.125 109.732zM39.206 449.21c0 15.395 12.48 27.875 27.875 27.875h929.278c15.396 0 27.877-12.48 27.877-27.875s-12.481-27.874-27.877-27.874h-929.278c-15.395 0-27.875 12.48-27.875 27.874z" />
<glyph unicode="&#xe907;" glyph-name="search" horiz-adv-x="1078" d="M498.813 93.297c-223.89 0-405.749 181.857-405.749 405.747s181.859 405.749 405.749 405.749c223.888 0 405.751-181.859 405.751-405.749s-181.862-405.747-405.751-405.747zM498.813 842.37c-189.349 0-343.326-153.976-343.326-343.326s153.977-343.326 343.326-343.326c189.347 0 343.325 153.977 343.325 343.326s-153.977 343.326-343.325 343.326zM880.015 8.413c-3.331 0-6.661 0.415-9.572 0.83-19.558 2.495-54.935 15.813-74.908 75.323-10.402 31.21-6.661 62.426 10.402 86.145s45.778 37.036 78.654 37.036c42.447 0 75.738-16.228 90.721-44.943s10.822-65.337-12.902-100.708c-29.545-44.533-61.586-53.685-82.394-53.685zM855.045 104.125c7.071-21.639 17.063-32.461 23.719-33.291 6.661-0.83 19.143 7.076 32.046 25.799 12.067 17.898 12.897 30.795 9.987 36.621-2.916 5.826-14.568 12.072-36.206 12.072-12.902 0-22.474-4.161-27.88-11.237-4.996-7.076-5.826-17.893-1.665-29.965z" />
<glyph unicode="&#xe908;" glyph-name="user" horiz-adv-x="1081" d="M542.52 824.332c-95.039 0-172.083-77.045-172.083-172.083s77.045-172.084 172.083-172.084c95.039 0 172.084 77.045 172.084 172.084s-77.045 172.083-172.084 172.083zM296.792 652.249c0 135.712 110.017 245.729 245.729 245.729 135.715 0 245.726-110.017 245.726-245.729s-110.012-245.729-245.726-245.729c-135.712 0-245.729 110.017-245.729 245.729zM146.767 15.007c0 188.735 184.774 329.29 395.723 329.29 210.953 0 395.722-140.555 395.722-329.29 0-20.338-16.486-36.824-36.818-36.824-20.338 0-36.824 16.486-36.824 36.824 0 134.645-136.943 255.642-322.079 255.642s-322.078-120.997-322.078-255.642c0-20.338-16.486-36.824-36.822-36.824s-36.823 16.486-36.823 36.824z" />
<glyph unicode="&#xe909;" glyph-name="instagram" horiz-adv-x="1103" d="M570.192 854.859c134.498 0 150.426-0.59 203.32-2.95 49.161-2.163 75.707-10.421 93.398-17.304 23.402-9.045 40.314-20.056 57.817-37.557 17.692-17.697 28.507-34.41 37.557-57.81 6.877-17.697 15.139-44.439 17.298-93.401 2.363-53.091 2.954-69.018 2.954-203.32 0-134.498-0.591-150.426-2.954-203.321-2.158-49.158-10.421-75.702-17.298-93.401-9.051-23.402-20.063-40.306-37.557-57.809-17.699-17.699-34.414-28.514-57.817-37.557-17.692-6.884-44.434-15.139-93.398-17.306-53.091-2.363-69.018-2.946-203.32-2.946-134.498 0-150.426 0.583-203.32 2.946-49.159 2.166-75.704 10.421-93.401 17.306-23.4 9.043-40.31 20.055-57.811 37.557-17.697 17.699-28.512 34.406-37.557 57.809-6.882 17.699-15.141 44.44-17.304 93.401-2.359 53.091-2.949 69.019-2.949 203.321 0 134.498 0.59 150.426 2.949 203.32 2.163 49.159 10.422 75.704 17.304 93.401 9.045 23.4 20.057 40.31 37.557 57.81 17.697 17.697 34.411 28.512 57.811 37.557 17.697 6.883 44.439 15.141 93.401 17.304 52.894 2.36 68.821 2.95 203.32 2.95zM570.192 945.507c-136.661 0-153.769-0.59-207.45-2.95-53.484-2.36-90.255-11.011-122.11-23.4-33.231-12.978-61.35-30.085-89.272-58.204-28.119-27.922-45.226-56.040-58.204-89.075-12.388-32.051-21.040-68.625-23.399-122.11-2.36-53.878-2.95-70.985-2.95-207.647s0.59-153.768 2.95-207.449c2.36-53.485 11.011-90.258 23.399-122.112 12.978-33.233 30.085-61.345 58.204-89.269 27.922-27.924 56.041-45.229 89.075-58.006 32.051-12.39 68.625-21.039 122.11-23.402 53.681-2.363 70.788-2.946 207.449-2.946s153.769 0.583 207.45 2.946c53.484 2.363 90.253 11.012 122.107 23.402 33.036 12.776 61.156 30.082 89.080 58.006s45.221 56.036 58.006 89.072c12.39 32.051 21.039 68.628 23.402 122.112 2.355 53.681 2.946 70.788 2.946 207.45s-0.591 153.768-2.946 207.449c-2.363 53.485-11.012 90.255-23.402 122.11-12.39 33.428-29.499 61.546-57.612 89.468-27.924 27.922-56.044 45.226-89.080 58.008-32.051 12.388-68.624 21.040-122.108 23.4-53.877 2.556-70.985 3.146-207.646 3.146zM570.192 700.697c-142.757 0-258.574-115.818-258.574-258.575s115.818-258.574 258.574-258.574c142.757 0 258.578 115.818 258.578 258.574s-115.821 258.575-258.578 258.575zM570.192 274.393c-92.615 0-167.73 75.114-167.73 167.729s75.114 167.73 167.73 167.73c92.614 0 167.73-75.114 167.73-167.73s-75.115-167.729-167.73-167.729zM899.356 710.924c0-33.428-27.136-60.366-60.361-60.366-33.43 0-60.37 27.135-60.37 60.366 0 33.428 27.137 60.367 60.37 60.367 33.225 0 60.361-27.136 60.361-60.367z" />
<glyph unicode="&#xe90a;" glyph-name="linkedIn" horiz-adv-x="1103" d="M997.778 945.507h-872.601c-41.8 0-75.6-30.462-75.6-68.123v-808.8c0-37.66 33.8-68.309 75.6-68.309h872.601c41.803 0 75.8 30.649 75.8 68.128v808.981c0 37.661-33.997 68.123-75.8 68.123zM353.377 140.028h-152v451.202h152v-451.202zM277.377 652.707c-48.8 0-88.2 36.369-88.2 81.231s39.4 81.231 88.2 81.231c48.6 0 87.999-36.369 87.999-81.231 0-44.677-39.4-81.231-87.999-81.231zM922.175 140.028h-151.798v219.325c0 52.246-1 119.631-79 119.631-79 0-91.001-57.046-91.001-115.938v-223.018h-151.6v451.202h145.6v-61.661h2c20.2 35.446 69.801 72.923 143.6 72.923 153.802 0 182.198-93.416 182.198-214.892v-247.572z" />
<glyph unicode="&#xe90b;" glyph-name="telegram" d="M998.7 469.573c0-263.92-213.948-477.867-477.867-477.867s-477.866 213.948-477.866 477.867c0 263.918 213.948 477.867 477.866 477.867 263.92 0 477.867-213.948 477.867-477.867zM537.958 594.657c-46.479-19.332-139.373-59.346-278.681-120.040-22.622-8.995-34.472-17.796-35.551-26.401-1.823-14.543 16.389-20.27 41.189-28.068 3.373-1.061 6.868-2.16 10.452-3.325 24.399-7.931 57.22-17.21 74.282-17.579 15.477-0.334 32.752 6.046 51.823 19.143 130.159 87.861 197.348 132.271 201.567 133.228 2.976 0.676 7.1 1.525 9.894-0.958s2.519-7.187 2.223-8.449c-1.804-7.692-73.292-74.153-110.287-108.547-11.533-10.722-19.714-18.328-21.387-20.064-3.746-3.891-7.564-7.572-11.233-11.11-22.667-21.851-39.666-38.238 0.941-64.997 19.514-12.859 35.129-23.493 50.707-34.102 17.013-11.586 33.982-23.142 55.937-37.532 5.594-3.666 10.936-7.475 16.139-11.189 19.799-14.111 37.586-26.795 59.562-24.774 12.769 1.181 25.959 13.182 32.661 48.995 15.831 84.631 46.947 268 54.135 343.562 0.635 6.621-0.164 15.093-0.799 18.812s-1.966 9.018-6.799 12.941c-5.728 4.646-14.568 5.625-18.521 5.556-17.968-0.317-45.546-9.905-178.255-65.103z" />
<glyph unicode="&#xe90c;" glyph-name="twitter" d="M334.397 77.175c360.564 0 557.834 298.798 557.834 557.835 0 8.4-0.184 16.987-0.56 25.386 38.373 27.752 71.489 62.127 97.792 101.51-35.738-15.901-73.68-26.286-112.538-30.801 40.912 24.524 71.543 63.049 86.221 108.435-38.489-22.81-80.582-38.9-124.471-47.581-29.573 31.422-68.669 52.227-111.254 59.198-42.578 6.971-86.273-0.279-124.321-20.63s-68.333-52.67-86.171-91.959c-17.839-39.289-22.238-83.36-12.517-125.399-77.934 3.91-154.175 24.155-223.783 59.423s-131.027 84.768-180.276 145.294c-25.031-43.156-32.691-94.224-21.422-142.825s40.62-91.088 82.089-118.826c-31.132 0.989-61.582 9.37-88.835 24.454v-2.427c-0.028-45.289 15.629-89.191 44.31-124.242s68.614-59.088 113.013-68.025c-28.839-7.89-59.107-9.040-88.461-3.36 12.529-38.949 36.904-73.015 69.726-97.444s72.45-37.999 113.357-38.825c-69.447-54.552-155.234-84.139-243.544-83.995-15.661 0.020-31.307 0.983-46.853 2.874 89.714-57.556 194.075-88.125 300.664-88.071z" />
<glyph unicode="&#xe90d;" glyph-name="arrow-stroke-right" horiz-adv-x="768" d="M90.805 912.456c37.49 37.49 98.274 37.49 135.765 0l387.633-387.633c37.491-37.49 37.491-98.275 0-135.764l-387.633-387.634c-37.491-37.49-98.275-37.49-135.765 0s-37.49 98.275 0 135.764l319.751 319.752-319.751 319.752c-37.49 37.49-37.49 98.274 0 135.764z" />
<glyph unicode="&#xe90e;" glyph-name="arrow-stroke-left" horiz-adv-x="768" d="M660.069 912.456c-37.49 37.49-98.273 37.49-135.764 0l-387.633-387.633c-37.491-37.49-37.491-98.275 0-135.764l387.633-387.634c37.491-37.49 98.275-37.49 135.764 0 37.491 37.491 37.491 98.275 0 135.764l-319.75 319.752 319.75 319.752c37.491 37.49 37.491 98.274 0 135.764z" />
<glyph unicode="&#xe90f;" glyph-name="arrow-stroke-bottom" horiz-adv-x="1536" d="M1411.509 808.853c49.988-49.987 49.988-131.032 0-181.018l-516.844-516.845c-49.988-49.987-131.033-49.987-181.019 0l-516.845 516.845c-49.987 49.987-49.987 131.031 0 181.019s131.033 49.987 181.019 0l426.336-426.335 426.334 426.335c49.988 49.987 131.033 49.987 181.019 0z" />
<glyph unicode="&#xe910;" glyph-name="arrow-stroke-top" horiz-adv-x="1365" d="M101.74 110.99c-49.987 49.988-49.987 131.033 0 181.019l516.844 516.845c49.987 49.987 131.033 49.987 181.019 0l516.845-516.845c49.987-49.987 49.987-131.031 0-181.019-49.987-49.987-131.033-49.987-181.019 0l-426.336 426.336-426.336-426.336c-49.987-49.987-131.031-49.987-181.018 0z" />
<glyph unicode="&#xe911;" glyph-name="youtube" d="M950.901 657.883c0 0-9.128 69.552-37.244 100.091-35.606 40.194-75.41 40.391-93.674 42.756-130.731 10.246-327.014 10.245-327.014 10.245h-0.365c0 0-196.284 0.001-327.017-10.245-18.259-2.365-58.064-2.561-93.668-42.756-28.119-30.539-37.066-100.091-37.066-100.091s-9.495-81.767-9.495-163.338v-76.447c0-81.57 9.312-163.338 9.312-163.338s9.129-69.548 37.066-100.092c35.605-40.192 82.348-38.817 103.163-43.147 74.862-7.687 317.888-10.050 317.888-10.050s196.466 0.395 327.197 10.445c18.264 2.363 58.068 2.56 93.674 42.752 28.116 30.544 37.244 100.092 37.244 100.092s9.311 81.57 9.311 163.338v76.447c0 81.57-9.311 163.338-9.311 163.338zM396.196 325.297v283.526l252.521-142.256-252.521-141.27z" />
<glyph unicode="&#xe912;" glyph-name="heart" horiz-adv-x="1084" d="M715.101 813.099c-74.957 0-142.052-36.445-183.881-92.356-41.83 55.911-108.922 92.356-183.884 92.356-127.145 0-230.269-103.538-230.269-231.512 0-49.285 7.869-94.841 21.536-137.085 65.437-207.079 267.129-330.911 366.94-364.872 14.081-4.969 37.274-4.969 51.355 0 99.812 33.961 301.504 157.792 366.938 364.872 13.667 42.244 21.54 87.8 21.54 137.085 0 127.973-103.129 231.512-230.274 231.512z" />
<glyph unicode="&#xe913;" glyph-name="like" d="M710.524-18.615h-169.033c-24.91 0-79.179 7.973-108.092 38.451l-134.781 109.736 40.923 55.801 137.895-112.545c11.121-11.257 39.144-20.634 64.054-20.634h169.033c40.032 0 83.179 33.763 92.080 71.746l107.644 344.67c7.117 20.633 5.786 39.39-3.555 52.99-9.787 14.537-27.582 22.978-49.379 22.978h-177.929c-23.131 0-44.483 10.317-59.162 28.136-15.124 18.289-21.797 42.674-18.237 67.996l22.241 150.529c5.338 26.26-11.565 55.804-35.585 64.244-21.797 8.441-49.821-3.751-59.606-18.757l-182.377-286.051-55.158 38.922 182.377 286.051c28.024 44.080 89.41 65.182 137.451 45.956 55.602-19.226 91.189-83.94 78.733-143.964l-21.796-147.715c-0.445-3.282-0.445-7.972 2.669-11.723 2.224-2.344 5.338-3.751 8.896-3.751h177.93c43.593 0 81.401-19.226 103.643-52.52 21.797-32.357 26.244-75.030 12.010-116.296l-106.313-341.382c-16.457-68.001-84.963-122.865-156.578-122.865zM225.665 32.995h-44.482c-82.292 0-122.326 40.799-122.326 124.27v459.557c0 83.471 40.034 124.268 122.326 124.268h44.482c82.292 0 122.327-40.798 122.327-124.268v-459.557c0-83.471-40.035-124.27-122.327-124.27zM181.184 670.749c-48.486 0-55.603-12.192-55.603-53.927v-459.557c0-41.735 7.118-53.928 55.603-53.928h44.482c48.486 0 55.603 12.193 55.603 53.928v459.557c0 41.735-7.117 53.927-55.603 53.927h-44.482z" />
<glyph unicode="&#xe914;" glyph-name="dislike" horiz-adv-x="951" d="M670.095 951.097h-169.032c-24.91 0-79.179-7.972-108.092-38.453l-134.782-109.731 40.924-55.803 137.895 112.544c11.121 11.254 39.145 20.634 64.055 20.634h169.032c40.034 0 83.182-33.763 92.076-71.747l107.652-344.668c7.117-20.633 5.778-39.39-3.562-52.99-9.787-14.537-27.575-22.978-49.371-22.978h-177.932c-23.131 0-44.482-10.317-59.161-28.137-15.124-18.288-21.797-42.673-18.238-67.995l22.241-150.527c5.338-26.266-11.565-55.808-35.586-64.249-21.796-8.441-49.82 3.752-59.606 18.761l-182.377 286.049-55.158-38.922 182.377-286.054c28.024-44.076 89.409-65.178 137.45-45.956 55.603 19.229 91.189 83.946 78.734 143.967l-21.797 147.714c-0.445 3.283-0.445 7.973 2.669 11.724 2.224 2.344 5.338 3.751 8.896 3.751h177.933c43.586 0 81.401 19.226 103.643 52.52 21.797 32.357 26.244 75.030 12.010 116.296l-106.313 341.386c-16.464 67.996-84.963 122.861-156.581 122.861zM185.237 899.486h-44.483c-82.292 0-122.326-40.797-122.326-124.268v-459.557c0-83.471 40.034-124.268 122.326-124.268h44.483c82.292 0 122.326 40.798 122.326 124.268v459.557c0 83.471-40.034 124.268-122.326 124.268zM140.755 261.733c-48.486 0-55.602 12.193-55.602 53.928v459.557c0 41.735 7.117 53.927 55.602 53.927h44.483c48.486 0 55.603-12.192 55.603-53.927v-459.557c0-41.735-7.118-53.928-55.603-53.928h-44.483z" />
<glyph unicode="&#xe915;" glyph-name="star" horiz-adv-x="1126" d="M577.51 930.2c110.968 0 121.459-195.918 187.524-265.141 66.065-69.221 271.458 9.925 299.987-112.94 28.477-122.928-156.286-164.637-179.068-270.103-22.901-105.466 89.986-253.646-6.474-327.39-96.46-73.677-200.293 93.092-301.969 93.092s-205.509-166.769-301.968-93.092c-96.46 73.744 16.366 221.924-6.475 327.39s-207.548 147.174-179.071 270.103c28.477 122.865 233.926 43.719 299.931 112.94 66.064 69.222 76.616 265.141 187.583 265.141z" />
<glyph unicode="&#xe916;" glyph-name="play" horiz-adv-x="882" d="M804.318 591.024c103.398-67.317 103.398-218.732 0-286.049l-519.202-338.028c-113.528-73.916-263.782 7.555-263.782 143.024v676.055c0 135.471 150.254 216.94 263.785 143.026l519.199-338.029z" />
<glyph unicode="&#xe917;" glyph-name="tick" horiz-adv-x="896" d="M886.6 758.6c12.4-12.4 12.4-32.8 0-45.2l-544-544c-12.4-12.4-32.8-12.4-45.2 0l-288 288c-12.4 12.4-12.4 32.8 0 45.2s32.8 12.4 45.2 0l265.4-265.4 521.4 521.4c12.4 12.4 32.8 12.4 45.2 0z" />
<glyph unicode="&#xe918;" glyph-name="close" horiz-adv-x="768" d="M685.2 658.8c25 25 25 65.6 0 90.6s-65.6 25-90.6 0l-210.6-210.8-210.8 210.6c-25 25-65.6 25-90.6 0s-25-65.6 0-90.6l210.8-210.6-210.6-210.8c-25-25-25-65.6 0-90.6s65.6-25 90.6 0l210.6 210.8 210.8-210.6c25-25 65.6-25 90.6 0s25 65.6 0 90.6l-210.8 210.6 210.6 210.8z" />
</font>
</defs>
</svg>
